Sanctum 2010 TS XViD - IMAGiNE

Author: kalong_12, 17-02-2011, 00:10  
Fast Download "Sanctum 2010 TS XViD - IMAGiNE"
Sanctum 2010 TS XViD - IMAGiNE is available on a new fast direct download service with over 17,778,62 Files to choose from. Download anything with more then 1000+ Kb/s downloading speed.Signup process takes just 10 sec to go.Signup today and enjoy the speed! Download Sanctum 2010 TS XViD - IMAGiNE at High Speed!

Sanctum 2010 TS XViD - IMAGiNE

Sanctum 2010 TS XViD - IMAGiNE
Sanctum 2010 TS XViD - IMAGiNE
http://www.imdb.com/title/tt1320261/IMDB Info
Language: English
1h 38mn | AVI | 720 x 384 | 25fps | MP3 - 128kbps | 1.41 GB
Genre:Action | Crime | Drama | Thriller


An underwater cave diving team experiences a life-threatening crisis during an expedition to the unexplored and least accessible cave system in the world.

DETAILS:

Video
ID: 0
Format: MPEG-4 Visual
Format profile: Advanced Simple@L5
Format settings, BVOP: Yes
Format settings, QPel: No
Format settings, GMC: No warppoints
Format settings, Matrix: Default (MPEG)
Muxing mode: Packed bitstream
Codec ID: XVID
Codec ID/Hint: XviD
Duration: 1h 38mn
Bit rate: 1 864 Kbps
Width: 720 pixels
Height: 384 pixels
Display aspect ratio: 1.875
Frame rate: 25.000 fps
Color space: YUV
Chroma subsampling: 4:2:0
Bit depth: 8 bits
Scan type: Progressive
Bits/(Pixel*Frame): 0.270
Stream size: 1.28 GiB (93%)
Writing library: XviD 61

Audio
ID: 1
Format: MPEG Audio
Format version: Version 1
Format profile: Layer 3
Codec ID: 55
Codec ID/Hint: MP3
Duration: 1h 38mn
Bit rate mode: Constant
Bit rate: 128 Kbps
Channel(s): 2 channels
Sampling rate: 44.1 KHz
Stream size: 90.2 MiB (6%)
Alignment: Split accross interleaves
Interleave, duration: 40 ms (1.00 video frame)
Interleave, preload duration: 500 ms

Screenshot

Sanctum 2010 TS XViD - IMAGiNE

Director:
Alister Grierson

Writers:
John Garvin (screenplay), Andrew Wight (screenplay)

Stars:
Rhys Wakefield, Allison Cratchley and Christopher Baker

Download:
http://www.fileserve.com/file/6wt5B2b
http://www.fileserve.com/file/qBDMHaG
http://www.fileserve.com/file/hThpXgf
http://www.fileserve.com/file/fwtnjvy
http://www.fileserve.com/file/PgNTssz
http://www.fileserve.com/file/yGv87V7

http://www.filesonic.com/file/80622538/Sanctum.2010.TS.XViD.IMAGiNE.part1.rar
http://www.filesonic.com/file/80622018/Sanctum.2010.TS.XViD.IMAGiNE.part2.rar
http://www.filesonic.com/file/80622542/Sanctum.2010.TS.XViD.IMAGiNE.part3.rar
http://www.filesonic.com/file/80622544/Sanctum.2010.TS.XViD.IMAGiNE.part4.rar
http://www.filesonic.com/file/80622010/Sanctum.2010.TS.XViD.IMAGiNE.part5.rar
http://www.filesonic.com/file/80621992/Sanctum.2010.TS.XViD.IMAGiNE.part6.rar


Use JDownloader to get Premium speed
Fast Download "Sanctum 2010 TS XViD - IMAGiNE"
Sanctum 2010 TS XViD - IMAGiNE is available on a new fast direct download service with over 17,778,62 Files to choose from. Download anything with more then 1000+ Kb/s downloading speed.Signup process takes just 10 sec to go.Signup today and enjoy the speed! Download Sanctum 2010 TS XViD - IMAGiNE at High Speed!
   
Download Sanctum 2010 TS XViD - IMAGiNE, Download Sanctum 2010 TS XViD - IMAGiNE, Download Sanctum 2010 TS XViD - IMAGiNE
Download Sanctum 2010 TS XViD - IMAGiNE Direct link, hotfile, rapidshare, megashare, fileserve, megaupload, filesonic, usershare, zippyshare, easyshare, shareflare, letitbit, turbobit, netload attivazione. Download Free Sanctum 2010 TS XViD - IMAGiNE link mediafire, wupload, depositfiles, uploading, 4shared, 2shared telecharger aktivierung single links. Sanctum 2010 TS XViD - IMAGiNE free torrent downloads activation include crack, activacion, serial, serie, keygen, portable, silent installation, serielle. Sanctum 2010 TS XViD - IMAGiNE Direct link, single link filekeen, pyramidfiles, filefat, gaiafile, uploadstation, freakshare, oron. Free Download Sanctum 2010 TS XViD - IMAGiNE Direct link, hotfile, rapidshare, megashare, fileserve, megaupload, filesonic, usershare, zippyshare, easyshare, shareflare, letitbit, turbobit, netload attivazione. Sanctum 2010 TS XViD - IMAGiNE crack, cracked, serial, serie, keygen, portable, activation tool

free download Sanctum 2010 TS XViD - IMAGiNE, Sanctum 2010 TS XViD - IMAGiNE rapidshare, Sanctum 2010 TS XViD - IMAGiNE megaupload, Sanctum 2010 TS XViD - IMAGiNE mediafire, Sanctum 2010 TS XViD - IMAGiNE shared

Bookmark and Share
Shared His Pages
Html Code:
<a href="http://therapidbay.com/movies/53190-sanctum-2010-ts-xvid-imagine.html" target="_blank">Sanctum 2010 TS XViD - IMAGiNE</a>

BB Code:
[url=http://therapidbay.com/movies/53190-sanctum-2010-ts-xvid-imagine.html]Sanctum 2010 TS XViD - IMAGiNE[/url]
 



Related Search:
Searches related to Sanctum 2010 TS XViD - IMAGiNE



Related News:



Information
Comment on the news site is possible only within 180 days from the date of publication.



TheRapidBay © 2010. All rights reserved. Ping