The Heavy 2010 DVDRiP XViD!

Author: nguyenbacuongCk05, 25-12-2010, 12:32  
Fast Download "The Heavy 2010 DVDRiP XViD"
The Heavy 2010 DVDRiP XViD is available on a new fast direct download service with over 17,778,62 Files to choose from. Download anything with more then 1000+ Kb/s downloading speed.Signup process takes just 10 sec to go.Signup today and enjoy the speed! Download The Heavy 2010 DVDRiP XViD at High Speed!


The Heavy 2010 DVDRiP XViD!


The Heavy 2010 DVDRiP XViD | 701 MB
IMDB: http://www.imdb.com/title/tt0473364/


Video

Codec ID/Hint : XviD
Duration : 1h 41mn
Bit rate : 849 Kbps
Width : 624 pixels
Height : 336 pixels
Display aspect ratio : 1.857
Frame rate : 23.976 fps
Color space : YUV
Chroma subsampling : 4:2:0
Bit depth : 8 bits
Scan type : Progressive
Bits/(Pixel*Frame) : 0.169
Stream size : 617 MiB (88%)
Writing library : XviD 57

Codec ID/Hint : MP3
Duration : 1h 41mn
Bit rate mode : Variable
Bit rate : 104 Kbps
Nominal bit rate : 112 Kbps
Channel(s) : 2 channels
Sampling rate : 48.0 KHz
Stream size : 75.2 MiB (11%)
Alignment : Aligned on interleaves
Interleave, duration : 24 ms (0.58 video frame)
Interleave, preload duration : 177 ms
Writing library : LAME3.97
Encoding settings : -m j -V 4 -q 2 -lowpass 16 --abr 112

Screenshots:

The Heavy 2010 DVDRiP XViD!

The Heavy 2010 DVDRiP XViD!
Download from [Hotfile.com]:

http://hotfile.com/dl/90715630/725ead5/The-Heavy-2010.part1.rar.html
http://hotfile.com/dl/90715647/f94283a/The-Heavy-2010.part2.rar.html
http://hotfile.com/dl/90715657/2c8cb22/The-Heavy-2010.part3.rar.html
http://hotfile.com/dl/90715725/7ca2d33/The-Heavy-2010.part4.rar.html

Download from [Fileserve.com]:

http://www.fileserve.com/file/Br6pAdt/The-Heavy-2010.part1.rar
http://www.fileserve.com/file/7dFkjst/The-Heavy-2010.part2.rar
http://www.fileserve.com/file/8MW3z7M/The-Heavy-2010.part3.rar
http://www.fileserve.com/file/Rs5srAY/The-Heavy-2010.part4.rar

Download from [Filesonic.com]:

http://www.filesonic.com/file/45028039/The-Heavy-2010.part1.rar
http://www.filesonic.com/file/45028265/The-Heavy-2010.part2.rar
http://www.filesonic.com/file/45028263/The-Heavy-2010.part3.rar
http://www.filesonic.com/file/45027899/The-Heavy-2010.part4.rar
Fast Download "The Heavy 2010 DVDRiP XViD"
The Heavy 2010 DVDRiP XViD is available on a new fast direct download service with over 17,778,62 Files to choose from. Download anything with more then 1000+ Kb/s downloading speed.Signup process takes just 10 sec to go.Signup today and enjoy the speed! Download The Heavy 2010 DVDRiP XViD at High Speed!
   
Download The Heavy 2010 DVDRiP XViD!, Download The Heavy 2010 DVDRiP XViD!, Download The Heavy 2010 DVDRiP XViD!
Download The Heavy 2010 DVDRiP XViD! Direct link, hotfile, rapidshare, megashare, fileserve, megaupload, filesonic, usershare, zippyshare, easyshare, shareflare, letitbit, turbobit, netload attivazione. Download Free The Heavy 2010 DVDRiP XViD! link mediafire, wupload, depositfiles, uploading, 4shared, 2shared telecharger aktivierung single links. The Heavy 2010 DVDRiP XViD! free torrent downloads activation include crack, activacion, serial, serie, keygen, portable, silent installation, serielle. The Heavy 2010 DVDRiP XViD! Direct link, single link filekeen, pyramidfiles, filefat, gaiafile, uploadstation, freakshare, oron. Free Download The Heavy 2010 DVDRiP XViD! Direct link, hotfile, rapidshare, megashare, fileserve, megaupload, filesonic, usershare, zippyshare, easyshare, shareflare, letitbit, turbobit, netload attivazione. The Heavy 2010 DVDRiP XViD! crack, cracked, serial, serie, keygen, portable, activation tool

free download The Heavy 2010 DVDRiP XViD!, The Heavy 2010 DVDRiP XViD! rapidshare, The Heavy 2010 DVDRiP XViD! megaupload, The Heavy 2010 DVDRiP XViD! mediafire, The Heavy 2010 DVDRiP XViD! shared

Bookmark and Share
Shared His Pages
Html Code:
<a href="http://therapidbay.com/movies/46058-the-heavy-2010-dvdrip-xvid.html" target="_blank">The Heavy 2010 DVDRiP XViD!</a>

BB Code:
[url=http://therapidbay.com/movies/46058-the-heavy-2010-dvdrip-xvid.html]The Heavy 2010 DVDRiP XViD![/url]
 



Related Search:
Searches related to The Heavy 2010 DVDRiP XViD!



Related News:



Information
Comment on the news site is possible only within 180 days from the date of publication.



TheRapidBay © 2010. All rights reserved. Ping